<?xml version="1.0" standalone="no"?>
<!DOCTYPE svg PUBLIC "-//W3C//DTD SVG 1.1//EN" "http://www.w3.org/Graphics/SVG/1.1/DTD/svg11.dtd" >
<svg xmlns="http://www.w3.org/2000/svg">
<metadata>
This is a custom SVG webfont generated by Font Squirrel.
Copyright   : Copyright  2009 by Jackson Cavanaugh  Okay Type  Design LLC All rights reserved
Designer    : Jackson Cavanaugh
Foundry     : Jackson Cavanaugh
Foundry URL : httptypetrustcom
</metadata>
<defs>
<font id="verythin" horiz-adv-x="442" >
<font-face units-per-em="2048" ascent="1556" descent="-492" />
<missing-glyph horiz-adv-x="532" />
<glyph unicode=" "  horiz-adv-x="532" />
<glyph unicode="&#x09;" horiz-adv-x="532" />
<glyph unicode="&#xa0;" horiz-adv-x="532" />
<glyph unicode="!" horiz-adv-x="460" d="M199 874v560h61v-560l-16 -471h-31zM205 0v182h49v-182h-49z" />
<glyph unicode="&#x22;" horiz-adv-x="768" d="M174 983v451h62l-27 -457zM532 983v451h62l-27 -457z" />
<glyph unicode="#" horiz-adv-x="1292" d="M82 309v45h295l63 389h-290v45h296l50 289h49l-49 -289h360l49 289h49l-49 -289h305v-45h-313l-66 -389h308v-45h-316l-51 -309h-47l51 309h-358l-51 -309h-48l50 309h-287zM424 354h360l66 389h-361z" />
<glyph unicode="$" horiz-adv-x="1040" d="M119 76l24 39q55 -35 150.5 -63.5t212.5 -31.5v506q-70 14 -136.5 31.5t-118.5 49.5t-84 83t-32 133q0 117 95.5 196t275.5 83v227h47v-227q106 -4 187 -24.5t139 -45.5l-21 -41q-53 23 -130 42.5t-175 23.5v-494q70 -14 137.5 -31.5t119.5 -50t85 -85t33 -134.5 q0 -123 -92.5 -201.5t-282.5 -85.5v-247h-47v247q-125 4 -225.5 33t-161.5 68zM184 823q0 -66 27 -108.5t71 -70.5t102 -44t122 -29v486q-154 -4 -238 -70t-84 -164zM553 20q168 4 247 72t79 170q0 66 -28 109t-73 70.5t-103.5 45t-121.5 29.5v-496z" />
<glyph unicode="%" horiz-adv-x="1431" d="M123 837.5q0 55.5 20.5 102.5t56.5 83t83 56.5t102 20.5t102.5 -20.5t83 -56.5t56 -83t20.5 -102.5t-20.5 -102.5t-56 -83t-83 -56.5t-102.5 -20.5t-102 20.5t-83 56.5t-56.5 83t-20.5 102.5zM168 838q0 -45 17.5 -85t46 -69t68.5 -46t87 -17q92 0 154.5 62t62.5 154.5 t-62.5 155t-154.5 62.5q-47 0 -87 -17.5t-68.5 -46t-46 -68.5t-17.5 -85zM279 0l798 1077h60l-801 -1077h-57zM784 237.5q0 55.5 20.5 102.5t56.5 83t83 56.5t102.5 20.5t102.5 -20.5t83 -56.5t56.5 -83t20.5 -102.5t-20.5 -102.5t-56.5 -83t-83 -56.5t-102.5 -20.5 t-102.5 20.5t-83 56.5t-56.5 83t-20.5 102.5zM829 238q0 -45 17.5 -85t46.5 -69t68.5 -46.5t87.5 -17.5q92 0 154.5 62.5t62.5 155t-62.5 155t-154.5 62.5q-47 0 -87 -17.5t-69 -46.5t-46.5 -68.5t-17.5 -84.5z" />
<glyph unicode="&#x26;" horiz-adv-x="1513" d="M102 389q0 74 25 140.5t68 124t101 104.5t126 84q-68 88 -91.5 160.5t-23.5 138.5q0 63 23.5 120.5t66.5 101.5t104.5 69.5t137.5 25.5q111 0 189.5 -38t127.5 -93l-34 -31q-43 51 -114 84t-169 33q-66 0 -118 -22.5t-89 -60.5t-56.5 -87t-19.5 -102q0 -66 30 -140.5 t108 -166.5q133 -158 286.5 -290t321.5 -257q66 82 101.5 180t35.5 207h47q0 -117 -39 -221.5t-106 -194.5l150 -110l155 -109l-31 -39l-152 110l-153 111q-98 -113 -237.5 -179.5t-297.5 -66.5q-119 0 -206.5 35t-147 92.5t-89.5 132t-30 154.5zM152 389q0 -72 26.5 -137.5 t79.5 -117.5t132 -83t185 -31q145 0 274.5 62.5t221.5 167.5q-162 123 -318.5 256t-299.5 299q-2 0 -2 2q-63 -33 -117.5 -77t-94.5 -96t-63.5 -113.5t-23.5 -131.5z" />
<glyph unicode="'" horiz-adv-x="409" d="M174 983v451h62l-27 -457z" />
<glyph unicode="(" horiz-adv-x="712" d="M133 567.5q0 161.5 34 302t90 262t131 225t157 189.5h59q-80 -82 -156.5 -183t-135 -224t-94.5 -265.5t-36 -306.5t36 -305t94.5 -263t135 -223.5t156.5 -185.5h-59q-82 88 -157 191.5t-131 224.5t-90 260.5t-34 301z" />
<glyph unicode=")" horiz-adv-x="712" d="M109 -410q80 84 156.5 185.5t135 223.5t94 263t35.5 305t-35.5 306.5t-94 265.5t-135.5 224t-156 183h59q82 -86 155.5 -189.5t131 -225t91.5 -262t34 -302t-34 -301t-90.5 -260.5t-131 -224.5t-156.5 -191.5h-59z" />
<glyph unicode="*" horiz-adv-x="851" d="M102 1153l310 -4v4l-121 281l61 20l92 -289l5 -2l229 203l39 -49l-248 -178v-4l266 -156l-37 -57l-243 180l-4 -2l-72 -299l-62 18l99 295l-2 4l-310 -28z" />
<glyph unicode="+" horiz-adv-x="1251" d="M113 489v50h489v487h49v-487h488v-50h-488v-489h-49v489h-489z" />
<glyph unicode="," horiz-adv-x="397" d="M63 -238q68 41 89.5 96.5t21.5 141.5v182h49v-182q0 -106 -33.5 -171t-105.5 -99z" />
<glyph unicode="-" horiz-adv-x="749" d="M102 500v49h545v-49h-545z" />
<glyph unicode="." horiz-adv-x="397" d="M174 0v182h49v-182h-49z" />
<glyph unicode="/" horiz-adv-x="933" d="M-20 -410l919 1956h55l-919 -1956h-55z" />
<glyph unicode="0" horiz-adv-x="1302" d="M119 539q0 123 42 226t113.5 178t169 116t208 41t207.5 -41t170 -116t114 -178t41 -226t-41 -226.5t-114 -178.5t-170 -117t-207.5 -42t-208 42t-169 117t-113.5 178.5t-42 226.5zM168 538.5q0 -110.5 37 -205.5t101.5 -165t153.5 -109t191 -39q104 0 192.5 39t153 109 t101.5 165t37 205.5t-37 206t-101.5 164t-152.5 107.5t-193 39q-102 0 -191 -39t-153.5 -107.5t-101.5 -164t-37 -206z" />
<glyph unicode="1" horiz-adv-x="862" d="M184 940l301 137h50v-1077h-50v1026l-280 -127z" />
<glyph unicode="2" horiz-adv-x="1187" d="M152 0v45q0 125 62 203t156.5 131t204 90t203.5 79t156.5 98t62.5 149q0 68 -31.5 117t-85 80.5t-121 47t-136.5 15.5q-61 0 -122 -13.5t-116 -36t-103.5 -55t-82.5 -69.5l-37 32q39 41 93 75t115.5 58.5t126 39t124.5 14.5q80 0 156.5 -18.5t137 -55.5t96.5 -94.5 t36 -135t-37 -133t-96.5 -95.5t-135.5 -70l-155 -61q-80 -30 -156 -62.5t-135.5 -76.5t-96 -105.5t-36.5 -147.5h860v-45h-907z" />
<glyph unicode="3" horiz-adv-x="1142" d="M82 918q39 41 90 74.5t109.5 58t120 39t120.5 14.5q106 0 193.5 -27.5t149 -75t95 -112t33.5 -139.5q0 -147 -89 -233.5t-226 -115.5q70 -6 137.5 -29.5t120.5 -66.5t86 -105.5t33 -144.5q0 -104 -45 -185t-123 -136.5t-183.5 -84t-228.5 -28.5q-121 0 -219 23.5 t-162 52.5l21 45q59 -29 152 -52.5t208 -23.5q111 0 208 26.5t169 76t113 122t41 164.5q0 84 -39 144.5t-102.5 99.5t-143.5 57.5t-160 18.5h-174v45h172q68 0 136.5 20.5t123.5 61.5t90 102.5t35 145.5q0 63 -29.5 120.5t-84 98.5t-132 65.5t-174.5 24.5q-123 0 -229.5 -49 t-175.5 -125z" />
<glyph unicode="4" horiz-adv-x="1247" d="M68 57l784 1022h70v-1034h264v-45h-264v-354h-50v354h-790zM125 45h747v985z" />
<glyph unicode="5" horiz-adv-x="1132" d="M113 -301l20 45q59 -29 143 -54.5t195 -25.5t204 30t162.5 84t108.5 133t39 177q0 88 -33.5 159.5t-96 123t-149.5 79t-194 27.5q-66 0 -139.5 -16.5t-157.5 -44.5l-41 28l19 633h749l2 -45h-706l-19 -573q74 29 150.5 46t142.5 17q117 0 213 -30.5t164.5 -88 t106.5 -138.5t38 -179q0 -111 -43 -197t-117.5 -146t-178 -92t-222.5 -32q-117 0 -208 23.5t-152 56.5z" />
<glyph unicode="6" horiz-adv-x="1261" d="M137 668q0 217 51.5 367.5t135.5 244.5t191.5 136t219.5 42q98 0 174 -16.5t133 -40.5l-20 -45q-53 23 -124 40t-163 17q-102 0 -202.5 -40t-178.5 -132t-125 -242q-43 -138 -43 -332v-34q37 49 91.5 92t119 74.5t135 50t144.5 18.5q98 0 183 -30.5t147.5 -88 t98.5 -138.5t36 -181q0 -90 -32 -172t-91.5 -144.5t-148.5 -100.5t-201 -38q-143 0 -243.5 54.5t-164 148.5t-93.5 220.5t-30 269.5zM188 580q8 -117 40 -219.5t90.5 -178.5t144.5 -119t205 -43q100 0 180 34t133 91.5t82 131t29 153.5q0 88 -32 161t-88.5 125t-132 79.5 t-163.5 27.5q-72 0 -145.5 -19.5t-138 -52t-118 -77.5t-86.5 -94z" />
<glyph unicode="7" horiz-adv-x="1163" d="M98 1032v45h957v-35l-641 -1398h-56l646 1388h-906z" />
<glyph unicode="8" horiz-adv-x="1310" d="M123 358q0 82 33.5 147.5t93 113t137.5 78t168 46.5q-78 12 -144.5 41t-114.5 73t-74.5 102.5t-26.5 130.5q0 84 34.5 151.5t97 115.5t146.5 74.5t182.5 26.5t182.5 -26.5t146.5 -74.5t97 -115.5t34.5 -151.5q0 -72 -26.5 -130.5t-74.5 -102.5t-114.5 -72.5t-144.5 -41.5 q88 -16 166.5 -46.5t138 -78t93.5 -113t34 -147.5q0 -90 -40 -161.5t-111.5 -120.5t-169 -75t-212 -26t-212 26t-169 75t-111.5 120.5t-40 161.5zM172 358q0 -78 37 -140t101.5 -106t152.5 -68t192.5 -24t192.5 24t152.5 68t101.5 106.5t37 139.5q0 84 -41 146.5 t-108.5 107.5t-154.5 71t-180 36q-92 -10 -179 -36t-154.5 -71t-108.5 -107.5t-41 -146.5zM244 1090q0 -72 31.5 -128.5t87 -97.5t130 -66.5t162.5 -33.5q88 8 163 33.5t130.5 66.5t87 97.5t31.5 128.5q0 74 -31.5 133t-87 101t-131.5 65.5t-162 23.5t-161.5 -23.5 t-131 -65.5t-87 -101t-31.5 -133z" />
<glyph unicode="9" horiz-adv-x="1251" d="M113 645q0 88 31.5 171t92 145.5t149.5 100.5t204 38q143 0 244.5 -54.5t166 -148.5t94 -220t29.5 -269q0 -217 -52 -368t-136 -245t-193.5 -136t-222.5 -42q-113 4 -195.5 28.5t-136.5 57.5l25 41q47 -29 127 -55.5t180 -26.5q104 0 204.5 40t179.5 132t126 241 q45 142 45 347v18q-39 -49 -93 -91t-118.5 -73.5t-136.5 -50t-145 -18.5q-100 0 -186.5 30.5t-149 88t-98 138.5t-35.5 181zM160 645q0 -90 31.5 -161.5t89 -124t134.5 -80t167 -27.5q74 0 147.5 19.5t139 52t118.5 77.5t84 95q-8 117 -40 219t-90 177t-145 119t-206 44 q-102 0 -182 -34t-135.5 -91.5t-84 -131t-28.5 -153.5z" />
<glyph unicode=":" horiz-adv-x="397" d="M174 0v182h49v-182h-49zM174 844v182h49v-182h-49z" />
<glyph unicode=";" horiz-adv-x="397" d="M63 -238q68 41 89.5 96.5t21.5 141.5v182h49v-182q0 -106 -33.5 -171t-105.5 -99zM174 844v182h49v-182h-49z" />
<glyph unicode="&#x3c;" horiz-adv-x="1323" d="M92 485v56l1088 485v-57l-1033 -455l1033 -457v-57z" />
<glyph unicode="=" horiz-adv-x="1251" d="M113 246v49h1026v-49h-1026zM113 735v49h1026v-49h-1026z" />
<glyph unicode="&#x3e;" horiz-adv-x="1323" d="M143 0v57l1033 457l-1033 455v57l1088 -485v-56z" />
<glyph unicode="?" horiz-adv-x="1007" d="M92 1294q68 72 161 118t216 46q96 0 174 -26.5t132 -72.5t84 -110.5t30 -138.5q0 -94 -34 -156.5t-84 -110.5t-108.5 -87t-108.5 -85t-84 -104.5t-34 -144.5v-19h-45v19q0 94 33 159.5t83 113.5t108.5 87t108.5 84t83 102.5t33 141.5q0 63 -27 118.5t-75 96.5 t-116.5 64.5t-152.5 23.5q-111 0 -196 -45t-144 -106zM389 0v182h49v-182h-49z" />
<glyph unicode="@" horiz-adv-x="1720" d="M143 567.5q0 153.5 58.5 289.5t160 236.5t237.5 159t292 58.5t281.5 -50.5t216 -139.5t139.5 -209.5t49 -264.5q0 -119 -33 -211t-87 -155.5t-122.5 -97.5t-138.5 -34q-92 0 -138 56q-41 49 -41 117q0 9 1 18q-47 -72 -121 -117t-164 -45q-109 0 -170 73t-61 195 q0 86 28.5 179.5t84 169t135 125t182.5 49.5q78 0 131 -35t84 -76l24 90h48l-146 -516q-15 -52 -14 -95q0 -42 13 -76q28 -69 126 -68q61 0 120.5 31.5t107 90t76 142.5t28.5 190q0 135 -46 249t-129 196t-202 127t-262 45q-145 0 -272 -54.5t-222.5 -149.5t-151 -222 t-55.5 -270.5t55.5 -269.5t151 -220t222 -149.5t272.5 -55.5q96 0 183 24.5t165 67.5l27 -41q-84 -47 -177.5 -72.5t-197.5 -25.5q-156 0 -292 58.5t-237.5 158.5t-160 235.5t-58.5 289zM551 449q0 -102 47 -165t139 -63q45 0 91.5 15.5t86 47t72.5 80t51 111.5l97 338 q-29 41 -76 77t-131 36q-88 0 -158 -46t-119 -117t-74.5 -154.5t-25.5 -159.5z" />
<glyph unicode="A" horiz-adv-x="1357" d="M82 0l563 1434h70l561 -1434h-57l-164 426h-752l-164 -426h-57zM319 471h719l-356 928h-4z" />
<glyph unicode="B" horiz-adv-x="1374" d="M197 0v1434h536q113 0 196 -29t137 -78t79.5 -113.5t25.5 -134.5q0 -141 -76.5 -227t-189.5 -115q143 -27 234.5 -113.5t91.5 -234.5q0 -186 -116 -287.5t-327 -101.5h-591zM246 754h487q100 0 174 26.5t122 70.5t70.5 103.5t22.5 124.5q0 61 -22.5 117.5t-70.5 99.5 t-121.5 68t-174.5 25h-487v-635zM246 45h542q193 0 293.5 89t100.5 255q0 76 -31 136.5t-84 100.5t-125 61.5t-156 21.5h-540v-664z" />
<glyph unicode="C" horiz-adv-x="1462" d="M135 737q0 162 51.5 295t143.5 227.5t221 146.5t287 52q121 0 234.5 -33.5t199.5 -97.5l-29 -41q-80 59 -186.5 93t-218.5 34q-145 0 -266 -49t-207 -138t-133.5 -213t-47.5 -276q0 -162 46 -294t132.5 -226t207 -145.5t268.5 -51.5q127 0 241.5 41t192.5 113l33 -37 q-86 -78 -209 -120t-258 -42q-160 0 -289 54.5t-221 155t-142.5 240.5t-50.5 312z" />
<glyph unicode="D" horiz-adv-x="1437" d="M197 0v1434h364q182 0 321.5 -48.5t232.5 -138.5t140.5 -219t47.5 -291q0 -172 -45.5 -309t-137.5 -232.5t-231 -145.5t-328 -50h-364zM246 45h315q176 0 306 48t216 137t128 217t42 290q0 150 -44 270.5t-131 205.5t-217 130.5t-300 45.5h-315v-1344z" />
<glyph unicode="E" horiz-adv-x="1296" d="M197 0v1434h927v-45h-878v-635h794v-45h-794v-664h893v-45h-942z" />
<glyph unicode="F" horiz-adv-x="1253" d="M197 0v1434h909v-45h-860v-637h776v-45h-776v-707h-49z" />
<glyph unicode="G" horiz-adv-x="1476" d="M135 737q0 162 51.5 295t143.5 227.5t221 146.5t287 52q119 0 231.5 -26.5t204.5 -79.5l-25 -41q-84 51 -190.5 76.5t-220.5 25.5q-145 0 -266 -49t-207 -138t-133.5 -213t-47.5 -276q0 -164 45 -297t129 -226t206 -143.5t274 -50.5q129 0 237.5 30t179.5 79v530h-469v46 h517v-601q-92 -61 -213 -95t-252 -34q-164 0 -294 53.5t-220.5 153t-139.5 239.5t-49 316z" />
<glyph unicode="H" horiz-adv-x="1417" d="M197 0v1434h49v-680h925v680h50v-1434h-50v709h-925v-709h-49z" />
<glyph unicode="I" d="M197 0v1434h49v-1434h-49z" />
<glyph unicode="J" horiz-adv-x="1148" d="M123 281l49 12q14 -47 41 -95t70 -87t104.5 -65t142.5 -26q98 0 170 33t118 92.5t68.5 139.5t22.5 176v973h49v-973q0 -106 -25.5 -195.5t-77.5 -154t-133 -100.5t-192 -36q-94 0 -163.5 28t-118.5 73t-80 98.5t-45 106.5z" />
<glyph unicode="K" horiz-adv-x="1339" d="M197 0v1434h49v-940l844 940h69l-475 -527l537 -907h-64l-504 870l-407 -450v-420h-49z" />
<glyph unicode="L" horiz-adv-x="1232" d="M197 0v1434h49v-1389h880v-45h-929z" />
<glyph unicode="M" horiz-adv-x="1720" d="M197 0v1434h82l581 -869l582 869h82v-1434h-49v1393l-615 -914l-614 918v-1397h-49z" />
<glyph unicode="N" horiz-adv-x="1454" d="M197 0v1434h71l940 -1387v1387h49v-1434h-73l-938 1384v-1384h-49z" />
<glyph unicode="O" horiz-adv-x="1650" d="M135 729q0 166 54.5 300t148.5 229.5t220 147.5t267.5 52t267.5 -52t220 -147.5t148.5 -229.5t54.5 -300q0 -176 -53.5 -316.5t-146.5 -237.5t-219 -148.5t-271.5 -51.5t-271.5 51.5t-219 148.5t-146.5 237.5t-53.5 316.5zM184 729q0 -166 50.5 -297t136.5 -223 t202.5 -140.5t252 -48.5t252 48.5t202.5 140.5t136 223t50 297q0 154 -51 281t-138 216t-204 138t-248 49t-247.5 -49t-203.5 -138t-138.5 -216t-51.5 -281z" />
<glyph unicode="P" horiz-adv-x="1329" d="M197 0v1434h542q125 0 211 -36t138.5 -92.5t75 -129t22.5 -146.5q0 -70 -23.5 -142.5t-77 -131t-139.5 -96t-211 -37.5h-489v-623h-49zM246 668h489q113 0 189.5 33.5t124 86t68 117t20.5 125.5q0 63 -20.5 128t-66.5 116t-122 83t-189 32h-493v-721z" />
<glyph unicode="Q" horiz-adv-x="1671" d="M135 729q0 166 54.5 300t148.5 229.5t220 147.5t267.5 52t267.5 -52t220 -147.5t148.5 -229.5t54.5 -300q0 -170 -49.5 -304t-135.5 -232l207 -181l-33 -37l-207 183q-92 -90 -212.5 -136.5t-260.5 -46.5q-145 0 -271 51.5t-219 148.5t-146.5 237.5t-53.5 316.5zM184 729 q0 -166 50.5 -297t136.5 -223t202.5 -140.5t251.5 -48.5q129 0 240 43t197 127l-291 254l35 39l288 -260q80 92 126 219t46 287q0 154 -51 281t-138 216t-204 138t-248 49t-247.5 -49t-203.5 -138t-138.5 -216t-51.5 -281z" />
<glyph unicode="R" horiz-adv-x="1355" d="M197 0v1434h563q123 0 209 -36t138 -92.5t75.5 -129t23.5 -146.5q0 -63 -19.5 -127.5t-61.5 -120t-108.5 -97.5t-162.5 -56l340 -629h-59l-332 625q-10 -2 -23 -2h-24h-510v-623h-49zM246 668h510q111 0 187.5 33.5t124.5 86t68.5 117t20.5 125.5q0 63 -20.5 128 t-66.5 116t-123 83t-187 32h-514v-721z" />
<glyph unicode="S" horiz-adv-x="1222" d="M127 113l29 41q33 -25 82 -48.5t108.5 -43t128 -31t141.5 -11.5q111 0 192 25t134 69t79 104.5t26 129.5q0 94 -39 153.5t-101.5 97.5t-143.5 60.5t-165 42t-165 44t-143.5 67.5t-101 110.5t-38.5 172.5q0 76 30.5 142.5t89 115.5t143.5 76.5t193 27.5q145 0 253 -29.5 t179 -66.5l-24 -45q-70 35 -171.5 65.5t-236.5 30.5q-96 0 -172 -23.5t-128 -66.5t-79.5 -101.5t-27.5 -125.5q0 -96 38.5 -155.5t101 -97.5t143.5 -59.5t165 -41t165 -44t143.5 -66.5t101.5 -109.5t39 -174.5q0 -80 -29 -147.5t-88 -117.5t-149.5 -79t-213.5 -29 q-158 0 -286.5 42.5t-202.5 95.5z" />
<glyph unicode="T" horiz-adv-x="1302" d="M68 1389v45h1167v-45h-559v-1389h-49v1389h-559z" />
<glyph unicode="U" horiz-adv-x="1449" d="M190 516v918h50v-918q0 -121 37.5 -214t104.5 -155.5t155 -94.5t188 -32t188 32t154 94.5t104.5 155.5t38.5 214v918h50v-918q0 -133 -42 -234.5t-115 -169t-170 -102.5t-208 -35t-208 35t-170 102.5t-115 169t-42 234.5z" />
<glyph unicode="V" horiz-adv-x="1314" d="M82 1434h55l518 -1389h4l519 1389h55l-545 -1434h-61z" />
<glyph unicode="W" horiz-adv-x="2068" d="M82 1434h55l438 -1387h5l419 1387h70l420 -1387h4l438 1387h56l-463 -1434h-68l-420 1384h-4l-420 -1384h-67z" />
<glyph unicode="X" horiz-adv-x="1339" d="M98 0l541 733l-516 701h63l484 -666l483 666h64l-517 -701l541 -733h-65l-506 696l-506 -696h-66z" />
<glyph unicode="Y" horiz-adv-x="1290" d="M82 1434h61l500 -799h4l500 799h61l-538 -842v-592h-49v592z" />
<glyph unicode="Z" horiz-adv-x="1312" d="M133 0v63l979 1326h-979v45h1026v-64l-977 -1325h998v-45h-1047z" />
<glyph unicode="[" horiz-adv-x="696" d="M184 -410v1956h369v-45h-320v-1866h320v-45h-369z" />
<glyph unicode="\" horiz-adv-x="933" d="M-20 1546h55l919 -1956h-55z" />
<glyph unicode="]" horiz-adv-x="696" d="M143 -365h320v1866h-320v45h369v-1956h-369v45z" />
<glyph unicode="^" horiz-adv-x="1028" d="M205 1151l287 344h45l286 -344h-61l-248 268l-250 -268h-59z" />
<glyph unicode="_" horiz-adv-x="1105" d="M0 -25h1106v-49h-1106v49z" />
<glyph unicode="`" horiz-adv-x="1351" d="M512 1434l43 36l285 -329h-41z" />
<glyph unicode="a" horiz-adv-x="1015" d="M113 215q0 102 63.5 166.5t159.5 100.5t210.5 50.5t219.5 18.5v219q0 98 -62.5 167t-201.5 69q-90 0 -177 -28t-147 -60l-24 45q63 35 156 61.5t192 26.5q82 0 141 -21.5t97 -59.5t56.5 -89.5t18.5 -110.5v-598q0 -63 32 -97t87 -34v-41q-72 0 -115 39t-51 108 q-53 -70 -150.5 -121t-218.5 -51q-129 0 -207.5 64.5t-78.5 175.5zM162 215q0 -90 64.5 -142.5t172.5 -52.5q61 0 117.5 15.5t105 41t85 58.5t59.5 70v303q-96 -4 -202.5 -17.5t-195.5 -46t-147.5 -88t-58.5 -141.5z" />
<glyph unicode="b" horiz-adv-x="1163" d="M197 0v1546h49v-674q66 70 152.5 124.5t201.5 54.5q98 0 177 -37t135.5 -105.5t87 -165t30.5 -215.5q0 -125 -27.5 -226t-82 -174t-134 -113t-184.5 -40q-106 0 -195.5 50.5t-162.5 134.5l-11 -160h-36zM246 219q72 -86 163 -142.5t193 -56.5q92 0 163 37t119 103.5 t72.5 160t24.5 207.5q0 109 -26.5 197t-77 150.5t-121 96.5t-156.5 34q-111 0 -197 -56.5t-157 -138.5v-592z" />
<glyph unicode="c" horiz-adv-x="1021" d="M133 528q0 119 34 216.5t93 165t143 104.5t185 37q104 0 179 -29t116 -59l-29 -41q-39 29 -105.5 56.5t-160.5 27.5q-90 0 -165 -34t-128 -96.5t-83 -150.5t-30 -197q0 -117 29 -211t81 -159.5t128 -101.5t168 -36q100 0 166.5 30t122.5 75l32 -37q-61 -51 -136 -82 t-185 -31q-104 0 -188.5 39t-143.5 111t-91 174t-32 229z" />
<glyph unicode="d" horiz-adv-x="1163" d="M133 528q0 119 31 215.5t87 165t135 105.5t177 37q115 0 202 -54.5t153 -124.5v674h49v-1546h-35l-12 160q-74 -84 -163 -134.5t-196 -50.5q-104 0 -184 40t-134.5 113t-82 174t-27.5 226zM182 528q0 -115 24.5 -208t73 -159.5t119 -103.5t162.5 -37q102 0 193.5 56.5 t163.5 142.5v592q-72 82 -158 138.5t-197 56.5q-86 0 -156.5 -34t-120.5 -96.5t-77 -150.5t-27 -197z" />
<glyph unicode="e" horiz-adv-x="1128" d="M133 528q0 119 35 216.5t97.5 165t147.5 104.5t187 37t176 -34t121 -92.5t69.5 -138t22.5 -172.5q0 -12 -1 -29.5t-3 -27.5h-803v-29q0 -236 102.5 -372t315.5 -136q92 0 177 32t143 73l28 -41q-59 -45 -153.5 -77t-194.5 -32q-238 0 -352.5 148.5t-114.5 404.5zM186 602 h754v17q0 73 -15 139q-17 74 -58.5 129t-107 87t-159.5 32q-84 0 -154.5 -29t-125 -81t-89.5 -127t-45 -167z" />
<glyph unicode="f" horiz-adv-x="690" d="M55 981v45h201v139q0 111 26.5 185.5t76 121t117 65.5t147.5 19q20 0 49.5 -3t42.5 -7l-10 -45q-10 4 -38 7t-44 3q-72 0 -130.5 -17t-99.5 -57t-64.5 -106.5t-23.5 -165.5v-139h307v-45h-307v-981h-49v981h-201z" />
<glyph unicode="g" horiz-adv-x="1130" d="M94 -164q0 88 60.5 145.5t154.5 90.5q-106 43 -106 151q0 41 23.5 79t62.5 63q-80 51 -128 132t-48 183q0 80 31.5 147.5t86 116.5t128 78t159.5 29q147 0 256 -80q55 41 128 63q62 19 136 19h27v-47q-21 1 -40 0q-71 0 -117 -12q-58 -15 -105 -44q59 -51 92 -119.5 t33 -150.5q0 -80 -32 -149.5t-87 -121t-130 -80t-161 -28.5q-106 0 -196 45q-33 -20 -54.5 -51t-21.5 -66q0 -53 29.5 -81.5t78.5 -44t110.5 -20.5t123.5 -9q84 -4 166 -17.5t146.5 -41t104 -72.5t39.5 -113q0 -129 -126.5 -194.5t-362.5 -65.5q-223 0 -342 70.5t-119 195.5 zM143 -164q0 -104 108.5 -162.5t303.5 -58.5q209 0 324.5 54.5t115.5 160.5q0 55 -35.5 91t-94 59.5t-134.5 35t-158 15.5q-123 2 -208 24q-92 -23 -157 -78t-65 -141zM162 680q0 -72 27.5 -132.5t75.5 -105.5t113.5 -70.5t139.5 -25.5q76 0 141.5 25.5t114.5 70.5t77 105.5 t28 132.5q0 68 -28 127t-77 103t-114.5 70t-141.5 26q-74 0 -139.5 -26t-113.5 -70t-75.5 -103t-27.5 -127z" />
<glyph unicode="h" horiz-adv-x="1146" d="M197 0v1546h49v-690q76 86 178 140.5t225 54.5q88 0 148.5 -25t97.5 -68t52.5 -103t15.5 -134v-721h-50v721q0 61 -13 113.5t-44 90.5t-82 59.5t-125 21.5q-123 0 -223 -57.5t-180 -151.5v-797h-49z" />
<glyph unicode="i" d="M197 0v1026h49v-1026h-49zM197 1372v133h49v-133h-49z" />
<glyph unicode="j" horiz-adv-x="456" d="M-70 -424l9 45q25 -6 55 -6q45 0 85 16.5t69.5 52t46 93t16.5 139.5v1110h49v-1110q0 -96 -20.5 -161.5t-56.5 -106.5t-84 -59.5t-105 -18.5q-31 0 -64 6zM211 1372v133h49v-133h-49z" />
<glyph unicode="k" horiz-adv-x="1007" d="M197 0v1546h49v-1134l567 614h66l-304 -326l371 -700h-55l-348 668l-297 -320v-348h-49z" />
<glyph unicode="l" d="M197 0v1546h49v-1546h-49z" />
<glyph unicode="m" horiz-adv-x="1779" d="M188 0v1026h41l9 -156q72 74 168 127.5t215 53.5q123 0 189.5 -51.5t90.5 -137.5q74 78 173.5 133.5t221.5 55.5q82 0 139.5 -25t93.5 -68t51 -103t15 -134v-721h-49v721q0 125 -55 205t-195 80q-117 0 -212 -52.5t-171 -140.5q6 -43 7 -92v-721h-50v721q0 61 -12 113.5 t-42 90.5t-78 59.5t-117 21.5q-117 0 -212.5 -53.5t-170.5 -143.5v-809h-50z" />
<glyph unicode="n" horiz-adv-x="1138" d="M188 0v1026h41l9 -168q76 80 176 136.5t227 56.5q88 0 148.5 -25t97.5 -68t52 -103t15 -134v-721h-49v721q0 63 -13 115.5t-44 90.5t-82 58.5t-125 20.5q-123 0 -223.5 -57.5t-179.5 -155.5v-793h-50z" />
<glyph unicode="o" horiz-adv-x="1202" d="M133 528q0 119 35 215.5t98.5 165t148.5 105.5t187 37q100 0 186 -37t148.5 -105.5t97.5 -165t35 -215.5q0 -127 -34 -229t-95 -174t-147 -111t-190.5 -39t-191.5 39t-148.5 111t-95.5 174t-34 229zM182 528q0 -117 30 -210t85 -159.5t133 -102.5t172 -36t171 36 t132.5 102.5t85 160t29.5 209.5q0 109 -32 197t-87 150.5t-132 96.5t-167 34t-167 -34t-133 -96.5t-88 -150.5t-32 -197z" />
<glyph unicode="p" horiz-adv-x="1163" d="M197 -410v1436h36l11 -156q66 72 152.5 126.5t203.5 54.5q98 0 177 -37t135.5 -105.5t87 -165t30.5 -215.5q0 -125 -27.5 -226t-82 -174t-134 -113t-184.5 -40q-106 0 -195.5 50.5t-160.5 132.5v-568h-49zM246 219q72 -86 163 -142.5t193 -56.5q92 0 163 37t119 103.5 t72.5 160t24.5 207.5q0 109 -26.5 197t-77 150.5t-121 96.5t-156.5 34q-111 0 -197 -56.5t-157 -138.5v-592z" />
<glyph unicode="q" horiz-adv-x="1163" d="M133 528q0 119 31 215.5t87 165t135 105.5t177 37q57 0 107.5 -15.5t94.5 -40t82 -57.5t71 -68l10 156h39v-1436h-49v568q-74 -82 -162 -132.5t-195 -50.5q-104 0 -184 40t-134.5 113t-82 174t-27.5 226zM182 528q0 -115 24.5 -208t73 -159.5t119 -103.5t162.5 -37 q102 0 193.5 56.5t163.5 142.5v592q-72 82 -158 138.5t-197 56.5q-86 0 -156.5 -34t-120.5 -96.5t-77 -150.5t-27 -197z" />
<glyph unicode="r" horiz-adv-x="743" d="M188 0v1026h41l9 -184q61 104 146 156.5t189 52.5q35 0 66 -3.5t53 -9.5l-12 -51q-23 6 -50.5 10t-56.5 4q-98 0 -184 -54t-151 -165v-782h-50z" />
<glyph unicode="s" horiz-adv-x="884" d="M92 66l29 40q47 -31 133 -58.5t188 -27.5q154 0 227.5 62.5t73.5 161.5q0 88 -47 134t-118.5 72.5t-154.5 44t-154.5 47t-119 84t-47.5 154.5q0 57 22.5 106.5t65.5 86.5t104.5 57.5t139.5 20.5q92 0 175 -20.5t136 -49.5l-22 -43q-49 27 -127 47.5t-162 20.5 q-135 0 -208.5 -64.5t-73.5 -161.5q0 -88 47 -134t118.5 -71.5t154.5 -42t154.5 -47t119 -85t47.5 -156.5q0 -119 -85 -194t-266 -75q-111 0 -205 28t-145 63z" />
<glyph unicode="t" horiz-adv-x="708" d="M55 981v45h199v348h49v-348h309v-45h-309v-735q0 -109 41 -168.5t150 -59.5q39 0 76.5 12.5t70.5 32.5l23 -38q-35 -20 -79 -35t-91 -15q-133 0 -186.5 72t-53.5 201v733h-199z" />
<glyph unicode="u" horiz-adv-x="1138" d="M184 305v721h49v-721q0 -63 13.5 -115.5t44.5 -90.5t82 -58.5t125 -20.5q123 0 222 56.5t181 154.5v795h49v-1026h-37l-12 166q-76 -78 -177 -134.5t-226 -56.5q-88 0 -148.5 25t-97.5 68t-52.5 103t-15.5 134z" />
<glyph unicode="v" horiz-adv-x="950" d="M61 1026h58l354 -969h4l354 969h58l-387 -1026h-53z" />
<glyph unicode="w" horiz-adv-x="1591" d="M61 1026h56l332 -979h2l315 979h57l318 -979h2l330 979h57l-356 -1026h-68l-309 965h-4l-308 -965h-69z" />
<glyph unicode="x" horiz-adv-x="970" d="M74 0l383 520l-359 506h60l327 -469l328 469h61l-358 -506l381 -520h-61l-351 483l-348 -483h-63z" />
<glyph unicode="y" horiz-adv-x="950" d="M49 -408l17 43q45 -20 96 -20q66 0 115 30.5t83 123.5l91 239l-390 1018h58l356 -948h4l352 948h58l-483 -1274q-41 -106 -102.5 -144t-141.5 -38q-27 0 -57.5 6t-55.5 16z" />
<glyph unicode="z" horiz-adv-x="976" d="M119 0v49l676 932h-660v45h719v-47l-676 -934h699v-45h-758z" />
<glyph unicode="{" horiz-adv-x="833" d="M72 528v50h63q121 0 164 53t43 170v493q0 252 258 252h100v-43h-100q-111 0 -160 -50t-49 -161v-487q0 -119 -43 -178.5t-108 -71.5v-2q66 -12 108.5 -71.5t42.5 -178.5v-459q0 -111 49 -161t160 -50h100v-43h-100q-258 0 -258 252v463q0 117 -43 170t-164 53h-63z" />
<glyph unicode="|" horiz-adv-x="499" d="M225 -410v1956h49v-1956h-49z" />
<glyph unicode="}" horiz-adv-x="833" d="M133 -367h100q111 0 160 50.5t49 160.5v459q0 119 43 178.5t109 71.5v2q-66 12 -109 71.5t-43 178.5v487q0 111 -49 161t-160 50h-100v43h100q258 0 259 -252v-493q0 -117 43 -170t163 -53h64v-50h-64q-121 0 -163.5 -53t-42.5 -170v-463q0 -252 -259 -252h-100v43z" />
<glyph unicode="~" horiz-adv-x="1163" d="M164 429v13q0 117 55 177.5t141 60.5q61 0 119 -41t112 -89t106.5 -89t105.5 -41q31 0 59.5 11t49 37t30.5 68q7 30 7 69q0 16 -1 34h49q2 -12 2 -19v-14q0 -117 -55 -177t-141 -60q-61 0 -118.5 41t-112 89t-107.5 89t-105 41q-31 0 -59.5 -11.5t-49 -37t-30.5 -67.5 q-7 -30 -7 -70q0 -16 1 -33h-49q-2 10 -2 19z" />
<glyph unicode="&#xa1;" horiz-adv-x="460" d="M199 152l14 471h31l16 -471v-560h-61v560zM205 844v182h49v-182h-49z" />
<glyph unicode="&#xa2;" horiz-adv-x="1157" d="M102 555q0 123 42 223.5t117 173t180.5 111.5t232.5 39q14 0 27.5 -1t27.5 -1l51 229h49l-53 -235q147 -18 252 -93l-27 -36q-47 33 -107 54t-126 32l-225 -1018q61 -12 131 -13q102 0 196.5 30t157.5 83l29 -35q-72 -59 -172.5 -91t-210.5 -32q-37 0 -72 4.5t-70 10.5 l-59 -262h-49l63 272q-180 51 -282.5 196.5t-102.5 358.5zM152 555q0 -197 91 -330t255 -180l221 1010q-10 0 -22.5 1t-22.5 1q-117 0 -213 -37t-165 -102.5t-106.5 -157.5t-37.5 -205z" />
<glyph unicode="&#xa3;" horiz-adv-x="1107" d="M90 150q0 76 55.5 126t141.5 50q70 0 129 -33t116 -80q6 25 7 49q0 74 -27 134.5t-61 117.5l-19 29h-213v45h184q-39 59 -67.5 124.5t-28.5 143.5q0 104 68.5 174t199.5 70q59 0 105.5 -14.5t79.5 -37t53.5 -49t32.5 -49.5l-45 -20q-10 18 -27.5 39.5t-44.5 40t-64.5 31 t-89.5 12.5q-109 0 -164 -55.5t-55 -141.5q0 -80 31 -143.5t72 -124.5h264v-45h-236q39 -61 70 -128t31 -153q0 -45 -13 -84q70 -57 141.5 -105t155.5 -48q76 0 118 44t46 136h49q-6 -229 -213 -230q-92 0 -168.5 48.5t-148.5 107.5q-23 -41 -54.5 -69.5t-68.5 -48t-75 -29 t-70 -9.5q-94 0 -145.5 51.5t-51.5 123.5zM139 150q0 -47 37 -87t107 -40q29 0 61.5 8t65 25.5t60.5 44t46 63.5q-57 47 -114.5 81t-118.5 34q-63 0 -103.5 -39t-40.5 -90z" />
<glyph unicode="&#xa4;" horiz-adv-x="1318" d="M133 540.5q0 106.5 39 200t109 164.5l-119 127l41 39l119 -129q70 57 154.5 90t183 33t183.5 -33t154 -90l123 129l41 -39l-123 -129q68 -72 108 -165t40 -197q0 -106 -39 -198.5t-107 -164.5l121 -127l-41 -39l-123 127q-68 -57 -153.5 -90t-184 -33t-184.5 32t-153 91 l-119 -127l-41 39l119 125q-70 72 -109 165t-39 199.5zM184 540.5q0 -98.5 37 -185.5t101.5 -151.5t151.5 -101t185.5 -36.5t184.5 36.5t150.5 101t102.5 151.5t38 185.5t-38 184.5t-102.5 150.5t-150.5 102.5t-184.5 38t-185.5 -38t-151.5 -102.5t-101.5 -150.5t-37 -184.5 z" />
<glyph unicode="&#xa5;" horiz-adv-x="1107" d="M78 1077h61l412 -585l418 585h61l-455 -637h392v-45h-392v-153h392v-45h-392v-197h-49v197h-395v45h395v153h-395v45h395z" />
<glyph unicode="&#xa6;" horiz-adv-x="499" d="M225 334h49v-744h-49v744zM225 694v852h49v-852h-49z" />
<glyph unicode="&#xa7;" horiz-adv-x="1064" d="M154 438q0 72 41 130.5t98 93.5q-41 33 -64.5 75.5t-23.5 104.5q0 119 91 182t245 63q109 0 195.5 -43t150.5 -110l-41 -35q-51 59 -129 101t-176 42q-129 0 -208 -49t-79 -151q0 -78 49 -124t122 -78t158 -58.5t157.5 -65.5t121.5 -100.5t49 -161.5q0 -72 -41 -131.5 t-100 -93.5q41 -31 65.5 -74t24.5 -105q0 -119 -91 -182t-245 -63q-109 0 -195.5 43t-150.5 110l41 35q51 -59 129 -101t176 -42q129 0 208 49t79 151q0 78 -49 124t-122 78t-158 58.5t-157.5 65.5t-121.5 100.5t-49 161.5zM203 438q0 -98 56 -153.5t138 -92t174.5 -66.5 t163.5 -73q47 29 87 81t40 120q0 66 -26.5 111t-69.5 77.5t-99.5 56t-115.5 45.5l-118 43q-58 22 -105 50q-47 -27 -86 -80t-39 -119z" />
<glyph unicode="&#xa8;" horiz-adv-x="1351" d="M471 1251v97h68v-97h-68zM811 1251v97h68v-97h-68z" />
<glyph unicode="&#xa9;" horiz-adv-x="1802" d="M154 567.5q0 153.5 58 289.5t159.5 236.5t237.5 159t292 58.5t292 -58.5t237.5 -159t160 -236.5t58.5 -289.5t-58.5 -289t-160 -235.5t-237.5 -158.5t-292 -58.5t-292 58.5t-237.5 158.5t-159.5 235.5t-58 289zM201 567.5q0 -143.5 55 -269.5t150.5 -220t222.5 -149.5 t272.5 -55.5t272 55.5t222 149.5t151 220t55.5 269.5t-55.5 270.5t-151 222t-222 149.5t-272 54.5t-272.5 -54.5t-222.5 -149.5t-150.5 -222t-55 -270.5zM492 565q0 92 32.5 169t90 133.5t135 88t168.5 31.5q145 0 253 -74l-26 -39q-47 35 -104.5 51.5t-122.5 16.5 q-82 0 -151 -28.5t-119 -79t-78.5 -119t-28.5 -150.5q0 -88 27.5 -158.5t77.5 -120.5t119 -77t153 -27q72 0 136 21.5t107 62.5l29 -33q-47 -47 -120 -71.5t-152 -24.5q-92 0 -170 30t-135.5 86t-89 135t-31.5 177z" />
<glyph unicode="&#xaa;" horiz-adv-x="737" d="M88 864q0 72 44 117t110.5 70.5t146.5 36t154 12.5v145q0 66 -42 111t-136 45q-61 0 -123 -20.5t-105 -43.5l-22 43q47 25 113.5 44.5t136.5 19.5q119 0 172 -56.5t53 -142.5v-407q0 -90 82 -90v-39q-53 0 -85 25.5t-42 72.5q-37 -47 -103.5 -81t-148.5 -34 q-92 0 -148.5 46t-56.5 126zM135 864q0 -59 44 -95t116 -36q84 0 148.5 37t99.5 84v205q-66 -2 -137.5 -11.5t-132 -31t-99.5 -58.5t-39 -94z" />
<glyph unicode="&#xab;" horiz-adv-x="1169" d="M113 514l413 512l37 -31l-387 -481l387 -483l-37 -31zM586 514l413 512l37 -31l-387 -481l387 -483l-37 -31z" />
<glyph unicode="&#xac;" horiz-adv-x="1193" d="M133 1028v49h928v-465h-49v416h-879z" />
<glyph unicode="&#xad;" horiz-adv-x="749" d="M102 500v49h545v-49h-545z" />
<glyph unicode="&#xae;" horiz-adv-x="1802" d="M154 567.5q0 153.5 58 289.5t159.5 236.5t237.5 159t292 58.5t292 -58.5t237.5 -159t160 -236.5t58.5 -289.5t-58.5 -289t-160 -235.5t-237.5 -158.5t-292 -58.5t-292 58.5t-237.5 158.5t-159.5 235.5t-58 289zM201 567.5q0 -143.5 54 -269.5t149.5 -220t222.5 -148.5 t272 -54.5t272 54.5t222.5 148.5t150.5 220t55 269.5t-55 270.5t-150.5 222t-222.5 149.5t-272 54.5t-272 -54.5t-222.5 -149.5t-149.5 -222t-54 -270.5zM604 160v811h363q80 0 135 -20.5t89 -53.5t49 -75t15 -87q0 -37 -12 -73.5t-37.5 -68.5t-67.5 -55.5t-102 -31.5 l209 -346h-61l-199 340h-332v-340h-49zM653 545h310q68 0 114.5 17.5t75.5 45t41 61t12 66.5q0 35 -12 70t-40 61.5t-74 43t-113 16.5h-314v-381z" />
<glyph unicode="&#xaf;" horiz-adv-x="1351" d="M403 1274v49h545v-49h-545z" />
<glyph unicode="&#xb0;" horiz-adv-x="843" d="M115 1150.5q0 63.5 24.5 120t65.5 97.5t97 65.5t119.5 24.5t120 -24.5t97.5 -65.5t65.5 -97.5t24.5 -120t-24.5 -119.5t-65.5 -97t-97.5 -65.5t-120 -24.5t-119.5 24.5t-97 65.5t-65.5 97t-24.5 119.5zM162 1151q0 -53 20.5 -101.5t55 -83t83 -55t101.5 -20.5t100 20.5 t83 55t56.5 83t20.5 101.5t-20.5 100t-56.5 83t-83 56.5t-100 20.5t-101.5 -20.5t-83 -56.5t-55 -83t-20.5 -100z" />
<glyph unicode="&#xb1;" horiz-adv-x="1251" d="M113 0v49h489v453h-489v49h489v475h49v-475h488v-49h-488v-453h488v-49h-1026z" />
<glyph unicode="&#xb2;" horiz-adv-x="653" d="M80 1024v27v10q0 85 32 139q34 57 83 93t107 60.5t108.5 50.5t84 61.5t33.5 95.5q0 63 -51 107t-149 44q-59 0 -112.5 -25.5t-88.5 -62.5l-35 29q41 43 104.5 71.5t131.5 28.5q123 0 185 -55.5t62 -136.5q0 -68 -32.5 -110t-82.5 -70.5t-108.5 -52t-108.5 -55.5t-83 -80 t-33 -126h448v-43h-495z" />
<glyph unicode="&#xb3;" horiz-adv-x="653" d="M76 1655q41 43 106.5 70.5t128.5 27.5q113 0 179.5 -52t66.5 -130q0 -66 -39 -109t-104 -59q70 -10 122 -52t52 -120q0 -53 -22.5 -93t-62.5 -69t-94.5 -43t-116 -14t-115.5 13t-89 30l18 41q33 -16 82.5 -29.5t104.5 -13.5q106 0 177 47t71 133q0 39 -17.5 66.5t-45 45 t-65.5 25.5t-77 8h-96v43h94q72 0 125 37t53 113q0 59 -53 100t-146 41q-59 0 -113.5 -23.5t-88.5 -64.5z" />
<glyph unicode="&#xb4;" horiz-adv-x="1351" d="M512 1141l285 329l43 -36l-287 -293h-41z" />
<glyph unicode="&#xb5;" horiz-adv-x="1032" d="M133 -410v1487h49v-796q4 -117 63.5 -189t200.5 -72q123 0 222.5 56.5t181.5 154.5v846h49v-1077h-39l-10 168q-76 -80 -176.5 -136.5t-227.5 -56.5q-123 0 -182 44t-82 122l-6 -551h-43z" />
<glyph unicode="&#xb6;" horiz-adv-x="1302" d="M143 1018q0 74 25 147.5t80 134t142 97.5t212 37h494v-1434h-49v1389h-291v-1389h-49v616h-101q-125 0 -213 37t-143 95.5t-81 130t-26 139.5z" />
<glyph unicode="&#xb7;" horiz-adv-x="397" d="M174 424v182h49v-182h-49z" />
<glyph unicode="&#xb8;" horiz-adv-x="1351" d="M545 -406q98 82 164.5 182.5t87.5 223.5h43q-16 -121 -80 -231.5t-162 -200.5z" />
<glyph unicode="&#xb9;" horiz-adv-x="524" d="M98 1636l201 105h41v-717h-45v668l-174 -93z" />
<glyph unicode="&#xba;" horiz-adv-x="864" d="M100 1077q0 84 25 151.5t70 116t105 74t132 25.5t133.5 -25.5t105.5 -74t68.5 -116t24.5 -151.5q0 -88 -23.5 -159.5t-67.5 -122t-105.5 -77t-135.5 -26.5t-135 26.5t-105.5 77t-68 122t-23.5 159.5zM147 1077q0 -158 78 -250t207 -92t207 92.5t78 249.5 q0 74 -21.5 133.5t-59.5 101.5t-90 65.5t-113.5 23.5t-114 -23.5t-90.5 -65.5t-59.5 -101.5t-21.5 -133.5z" />
<glyph unicode="&#xbb;" horiz-adv-x="1169" d="M133 31l387 483l-387 481l37 31l414 -512l-414 -514zM606 31l387 483l-387 481l37 31l414 -512l-414 -514z" />
<glyph unicode="&#xbc;" horiz-adv-x="1400" d="M96 1329l201 105h41v-717h-45v667l-174 -92zM115 0l1179 1434h66l-1180 -1434h-65zM797 207l395 510h59v-510h129v-41h-129v-166h-45v166h-395zM850 207h356v461z" />
<glyph unicode="&#xbd;" horiz-adv-x="1488" d="M96 1329l201 105h41v-717h-45v667l-174 -92zM115 0l1179 1434h66l-1180 -1434h-65zM973 0v27v10q0 85 32 139q34 57 83 93t107 60.5t108.5 50.5t84 61.5t33.5 95.5q0 63 -51 107t-149 44q-59 0 -112.5 -25.5t-88.5 -62.5l-35 29q41 43 104.5 71.5t131.5 28.5 q123 0 185 -55.5t62 -136.5q0 -70 -32.5 -111t-82.5 -69.5t-108.5 -52t-109 -55.5t-83 -80t-32.5 -126h448v-43h-495z" />
<glyph unicode="&#xbe;" horiz-adv-x="1439" d="M16 1348q41 43 106.5 70.5t129.5 27.5q113 0 179.5 -52.5t66.5 -129.5q0 -66 -39 -109t-105 -59q70 -10 122 -52.5t52 -119.5q0 -53 -22.5 -93t-62.5 -69t-94 -43t-115.5 -14t-116 13t-88.5 30l18 40q33 -16 82 -29.5t104 -13.5q106 0 177 47.5t71 133.5q0 39 -17.5 66.5 t-45 45t-65.5 25.5t-77 8h-96v43h94q72 0 125.5 37t53.5 113q0 59 -53.5 100t-145.5 41q-59 0 -113.5 -23.5t-89.5 -64.5zM154 0l1179 1434h66l-1180 -1434h-65zM836 207l395 510h59v-510h129v-41h-129v-166h-45v166h-395zM889 207h356v461z" />
<glyph unicode="&#xbf;" horiz-adv-x="960" d="M113 -84q0 92 33.5 155.5t84 111.5t108.5 88t108.5 85t84 103.5t33.5 144.5v19h45v-19q0 -96 -32.5 -160.5t-83 -112.5t-108.5 -87t-108.5 -84t-83 -102.5t-32.5 -141.5q0 -63 26.5 -118.5t74.5 -96.5t117 -64.5t152 -23.5q111 0 196 45t144 106l37 -32 q-68 -72 -161 -118t-216 -46q-96 0 -173.5 26.5t-132 72.5t-84 110.5t-29.5 138.5zM563 844v182h49v-182h-49z" />
<glyph unicode="&#xc0;" horiz-adv-x="1357" d="M82 0l563 1434h70l561 -1434h-57l-164 426h-752l-164 -426h-57zM319 471h719l-356 928h-4zM449 1739l45 41l223 -234h-47z" />
<glyph unicode="&#xc1;" horiz-adv-x="1357" d="M82 0l563 1434h70l561 -1434h-57l-164 426h-752l-164 -426h-57zM319 471h719l-356 928h-4zM639 1546l223 234l45 -41l-221 -193h-47z" />
<glyph unicode="&#xc2;" horiz-adv-x="1357" d="M82 0l563 1434h70l561 -1434h-57l-164 426h-752l-164 -426h-57zM319 471h719l-356 928h-4zM375 1546l268 205h70l268 -205h-45l-256 160h-2l-258 -160h-45z" />
<glyph unicode="&#xc3;" horiz-adv-x="1357" d="M82 0l563 1434h70l561 -1434h-57l-164 426h-752l-164 -426h-57zM319 471h719l-356 928h-4zM420 1573q-2 18 -2 35q0 61 29 97q38 46 98 46q43 0 77.5 -24.5t65.5 -55.5t60.5 -55.5t64.5 -24.5q41 0 66 35q18 26 18 68q0 14 -2 30h43q2 -18 2 -34q0 -61 -30 -98 q-38 -46 -97 -46q-43 0 -78 24.5t-65.5 55.5t-60 55.5t-64.5 24.5q-41 0 -66 -35q-18 -26 -18 -68q0 -14 2 -30h-43z" />
<glyph unicode="&#xc4;" horiz-adv-x="1357" d="M82 0l563 1434h70l561 -1434h-57l-164 426h-752l-164 -426h-57zM319 471h719l-356 928h-4zM465 1602v96h67v-96h-67zM825 1602v96h68v-96h-68z" />
<glyph unicode="&#xc5;" horiz-adv-x="1357" d="M82 0l551 1405q-59 16 -98 64.5t-39 113.5q0 76 53 129t129 53t129 -53t53 -129q0 -66 -38 -113t-97 -63l551 -1407h-57l-164 426h-752l-164 -426h-57zM319 471h719l-356 928h-4zM530 1583q0 -59 39 -102t97 -47h12q61 0 104 44t43 105.5t-43 104.5t-104.5 43 t-104.5 -43.5t-43 -104.5z" />
<glyph unicode="&#xc6;" horiz-adv-x="2033" d="M82 0l661 1434h1119v-50h-1031l189 -628h758v-49h-742l199 -658h641v-49h-682l-127 426h-733l-193 -426h-59zM354 471h701l-271 913h-16z" />
<glyph unicode="&#xc7;" horiz-adv-x="1462" d="M135 737q0 162 51.5 295t143.5 227.5t221 146.5t287 52q121 0 234.5 -33.5t199.5 -97.5l-29 -41q-80 59 -186.5 93t-218.5 34q-145 0 -266 -49t-207 -138t-133.5 -213t-47.5 -276q0 -162 46 -294t132.5 -226t207 -145.5t268.5 -51.5q127 0 241.5 41t192.5 113l33 -37 q-86 -78 -209 -120t-258 -42h-21q-10 0 -20 2q-20 -115 -82 -219t-156 -190l-53 26q92 78 158.5 174.5t89.5 211.5q-141 14 -256 73.5t-195 157.5t-124 232t-44 294z" />
<glyph unicode="&#xc8;" horiz-adv-x="1296" d="M197 0v1434h927v-45h-878v-635h794v-45h-794v-664h893v-45h-942zM438 1739l45 41l224 -234h-48z" />
<glyph unicode="&#xc9;" horiz-adv-x="1296" d="M197 0v1434h927v-45h-878v-635h794v-45h-794v-664h893v-45h-942zM629 1546l223 234l45 -41l-221 -193h-47z" />
<glyph unicode="&#xca;" horiz-adv-x="1296" d="M197 0v1434h927v-45h-878v-635h794v-45h-794v-664h893v-45h-942zM365 1546l268 205h69l269 -205h-45l-256 160h-2l-258 -160h-45z" />
<glyph unicode="&#xcb;" horiz-adv-x="1296" d="M197 0v1434h927v-45h-878v-635h794v-45h-794v-664h893v-45h-942zM455 1602v96h67v-96h-67zM815 1602v96h68v-96h-68z" />
<glyph unicode="&#xcc;" d="M-8 1739l45 41l223 -234h-47zM197 0v1434h49v-1434h-49z" />
<glyph unicode="&#xcd;" d="M182 1546l224 234l45 -41l-222 -193h-47zM197 0v1434h49v-1434h-49z" />
<glyph unicode="&#xce;" d="M-82 1546l268 205h70l268 -205h-45l-256 160h-2l-258 -160h-45zM197 0v1434h49v-1434h-49z" />
<glyph unicode="&#xcf;" d="M8 1602v96h68v-96h-68zM197 0v1434h49v-1434h-49zM369 1602v96h67v-96h-67z" />
<glyph unicode="&#xd0;" horiz-adv-x="1505" d="M31 696v45h233v693h365q182 0 321.5 -48.5t232.5 -138.5t140 -219t47 -291q0 -172 -45 -309t-137 -232.5t-231.5 -145.5t-327.5 -50h-365v696h-233zM313 45h316q176 0 306 48t216 137t128 217t42 290q0 150 -44 270.5t-131 205.5t-217 130.5t-300 45.5h-316v-648h521v-45 h-521v-651z" />
<glyph unicode="&#xd1;" horiz-adv-x="1454" d="M197 0v1434h71l940 -1387v1387h49v-1434h-73l-938 1384v-1384h-49zM469 1573q-2 18 -2 35q0 61 30 97q38 46 97 46q43 0 78 -24.5t65.5 -55.5t60 -55.5t64.5 -24.5q41 0 66 35q18 26 18 68q0 14 -2 30h43q2 -18 2 -34q0 -61 -30 -98q-38 -46 -97 -46q-43 0 -77.5 24.5 t-65.5 55.5t-60.5 55.5t-64.5 24.5q-41 0 -66 -35q-18 -26 -18 -68q0 -14 2 -30h-43z" />
<glyph unicode="&#xd2;" horiz-adv-x="1650" d="M135 729q0 166 54.5 300t148.5 229.5t220 147.5t267.5 52t267.5 -52t220 -147.5t148.5 -229.5t54.5 -300q0 -176 -53.5 -316.5t-146.5 -237.5t-219 -148.5t-271.5 -51.5t-271.5 51.5t-219 148.5t-146.5 237.5t-53.5 316.5zM184 729q0 -166 50.5 -297t136.5 -223 t202.5 -140.5t252 -48.5t252 48.5t202.5 140.5t136 223t50 297q0 154 -51 281t-138 216t-204 138t-248 49t-247.5 -49t-203.5 -138t-138.5 -216t-51.5 -281zM596 1739l45 41l223 -234h-47z" />
<glyph unicode="&#xd3;" horiz-adv-x="1650" d="M135 729q0 166 54.5 300t148.5 229.5t220 147.5t267.5 52t267.5 -52t220 -147.5t148.5 -229.5t54.5 -300q0 -176 -53.5 -316.5t-146.5 -237.5t-219 -148.5t-271.5 -51.5t-271.5 51.5t-219 148.5t-146.5 237.5t-53.5 316.5zM184 729q0 -166 50.5 -297t136.5 -223 t202.5 -140.5t252 -48.5t252 48.5t202.5 140.5t136 223t50 297q0 154 -51 281t-138 216t-204 138t-248 49t-247.5 -49t-203.5 -138t-138.5 -216t-51.5 -281zM786 1546l224 234l45 -41l-221 -193h-48z" />
<glyph unicode="&#xd4;" horiz-adv-x="1650" d="M135 729q0 166 54.5 300t148.5 229.5t220 147.5t267.5 52t267.5 -52t220 -147.5t148.5 -229.5t54.5 -300q0 -176 -53.5 -316.5t-146.5 -237.5t-219 -148.5t-271.5 -51.5t-271.5 51.5t-219 148.5t-146.5 237.5t-53.5 316.5zM184 729q0 -166 50.5 -297t136.5 -223 t202.5 -140.5t252 -48.5t252 48.5t202.5 140.5t136 223t50 297q0 154 -51 281t-138 216t-204 138t-248 49t-247.5 -49t-203.5 -138t-138.5 -216t-51.5 -281zM522 1546l269 205h69l268 -205h-45l-256 160h-2l-258 -160h-45z" />
<glyph unicode="&#xd5;" horiz-adv-x="1650" d="M135 729q0 166 54.5 300t148.5 229.5t220 147.5t267.5 52t267.5 -52t220 -147.5t148.5 -229.5t54.5 -300q0 -176 -53.5 -316.5t-146.5 -237.5t-219 -148.5t-271.5 -51.5t-271.5 51.5t-219 148.5t-146.5 237.5t-53.5 316.5zM184 729q0 -166 50.5 -297t136.5 -223 t202.5 -140.5t252 -48.5t252 48.5t202.5 140.5t136 223t50 297q0 154 -51 281t-138 216t-204 138t-248 49t-247.5 -49t-203.5 -138t-138.5 -216t-51.5 -281zM567 1573q-2 18 -2 35q0 61 30 97q38 46 97 46q43 0 78 -24.5t65.5 -55.5t60.5 -55.5t65 -24.5q41 0 65 35 q18 26 18 68q0 14 -2 30h43q2 -18 3 -34q0 -61 -30 -98q-38 -46 -97 -46q-43 0 -78 24.5t-66 55.5t-60.5 55.5t-64.5 24.5q-41 0 -65 -35q-18 -26 -19 -68q0 -14 2 -30h-43z" />
<glyph unicode="&#xd6;" horiz-adv-x="1650" d="M135 729q0 166 54.5 300t148.5 229.5t220 147.5t267.5 52t267.5 -52t220 -147.5t148.5 -229.5t54.5 -300q0 -176 -53.5 -316.5t-146.5 -237.5t-219 -148.5t-271.5 -51.5t-271.5 51.5t-219 148.5t-146.5 237.5t-53.5 316.5zM184 729q0 -166 50.5 -297t136.5 -223 t202.5 -140.5t252 -48.5t252 48.5t202.5 140.5t136 223t50 297q0 154 -51 281t-138 216t-204 138t-248 49t-247.5 -49t-203.5 -138t-138.5 -216t-51.5 -281zM612 1602v96h68v-96h-68zM973 1602v96h67v-96h-67z" />
<glyph unicode="&#xd7;" horiz-adv-x="1165" d="M154 92l395 422l-395 424l36 33l392 -420l393 420l37 -33l-396 -424l396 -422l-37 -33l-393 420l-392 -420z" />
<glyph unicode="&#xd8;" horiz-adv-x="1650" d="M135 729q0 166 54.5 300t148.5 229.5t220 147.5t267 52q117 0 223.5 -35.5t192.5 -101.5l139 186l37 -26l-139 -189q111 -96 174.5 -239.5t63.5 -323.5q0 -176 -53.5 -316.5t-146.5 -237.5t-219 -148.5t-272 -51.5q-119 0 -225 34t-192 100l-134 -183l-38 27l137 186 q-111 98 -174.5 246.5t-63.5 343.5zM184 729q0 -182 58.5 -320.5t158.5 -230.5l811 1104q-82 63 -179 97t-208 34q-131 0 -247.5 -49t-203.5 -138t-138.5 -216t-51.5 -281zM436 147q80 -61 179.5 -94t209.5 -33q135 0 252 48.5t203 140.5t136 223t50 297t-58 298t-159 224z " />
<glyph unicode="&#xd9;" horiz-adv-x="1449" d="M190 516v918h50v-918q0 -121 37.5 -214t104.5 -155.5t155 -94.5t188 -32t188 32t154 94.5t104.5 155.5t38.5 214v918h50v-918q0 -133 -42 -234.5t-115 -169t-170 -102.5t-208 -35t-208 35t-170 102.5t-115 169t-42 234.5zM496 1739l45 41l223 -234h-47z" />
<glyph unicode="&#xda;" horiz-adv-x="1449" d="M190 516v918h50v-918q0 -121 37.5 -214t104.5 -155.5t155 -94.5t188 -32t188 32t154 94.5t104.5 155.5t38.5 214v918h50v-918q0 -133 -42 -234.5t-115 -169t-170 -102.5t-208 -35t-208 35t-170 102.5t-115 169t-42 234.5zM686 1546l223 234l45 -41l-221 -193h-47z" />
<glyph unicode="&#xdb;" horiz-adv-x="1449" d="M190 516v918h50v-918q0 -121 37.5 -214t104.5 -155.5t155 -94.5t188 -32t188 32t154 94.5t104.5 155.5t38.5 214v918h50v-918q0 -133 -42 -234.5t-115 -169t-170 -102.5t-208 -35t-208 35t-170 102.5t-115 169t-42 234.5zM422 1546l268 205h70l268 -205h-45l-256 160h-2 l-258 -160h-45z" />
<glyph unicode="&#xdc;" horiz-adv-x="1449" d="M190 516v918h50v-918q0 -121 37.5 -214t104.5 -155.5t155 -94.5t188 -32t188 32t154 94.5t104.5 155.5t38.5 214v918h50v-918q0 -133 -42 -234.5t-115 -169t-170 -102.5t-208 -35t-208 35t-170 102.5t-115 169t-42 234.5zM512 1602v96h68v-96h-68zM872 1602v96h68v-96 h-68z" />
<glyph unicode="&#xdd;" horiz-adv-x="1290" d="M82 1434h61l500 -799h4l500 799h61l-538 -842v-592h-49v592zM606 1546l223 234l45 -41l-221 -193h-47z" />
<glyph unicode="&#xde;" horiz-adv-x="1329" d="M197 0v1434h49v-306h514q125 0 211 -35.5t138 -92t74.5 -129t22.5 -146.5q0 -70 -23.5 -142.5t-76.5 -131t-139 -96.5t-211 -38h-510v-317h-49zM246 362h510q111 0 187.5 34t124.5 86.5t68.5 117t20.5 125.5q0 63 -20.5 128t-66.5 116t-123 82.5t-187 31.5h-514v-721z " />
<glyph unicode="&#xdf;" horiz-adv-x="1257" d="M197 0v1145q0 98 30.5 175t86 130t132 81t166.5 28q92 0 169 -27t134.5 -77t89 -122.5t31.5 -167.5q0 -61 -19.5 -119.5t-59.5 -107.5t-101 -85t-145 -50q106 -10 187 -47t134 -92.5t80 -124t27 -142.5q0 -96 -35 -174t-97.5 -132t-147.5 -84t-185 -30q-66 0 -118 7.5 t-85 17.5l14 49q29 -10 78 -17t111 -7q88 0 163.5 25.5t132 73.5t88.5 116.5t32 154.5q0 78 -32 147.5t-92.5 121t-149.5 81t-204 29.5h-86v49h80q106 0 179 31t118 80t64.5 109.5t19.5 119.5q0 86 -28.5 151.5t-79 108.5t-119 65.5t-148.5 22.5t-147.5 -24.5t-115.5 -70.5 t-75.5 -115.5t-27.5 -157.5v-1145h-49z" />
<glyph unicode="&#xe0;" horiz-adv-x="1015" d="M113 215q0 102 63.5 166.5t159.5 100.5t210.5 50.5t219.5 18.5v219q0 98 -62.5 167t-201.5 69q-90 0 -177 -28t-147 -60l-24 45q63 35 156 61.5t192 26.5q82 0 141 -21.5t97 -59.5t56.5 -89.5t18.5 -110.5v-598q0 -63 32 -97t87 -34v-41q-72 0 -115 39t-51 108 q-53 -70 -150.5 -121t-218.5 -51q-129 0 -207.5 64.5t-78.5 175.5zM162 215q0 -90 64.5 -142.5t172.5 -52.5q61 0 117.5 15.5t105 41t85 58.5t59.5 70v303q-96 -4 -202.5 -17.5t-195.5 -46t-147.5 -88t-58.5 -141.5zM233 1434l43 36l285 -329h-41z" />
<glyph unicode="&#xe1;" horiz-adv-x="1015" d="M113 215q0 102 63.5 166.5t159.5 100.5t210.5 50.5t219.5 18.5v219q0 98 -62.5 167t-201.5 69q-90 0 -177 -28t-147 -60l-24 45q63 35 156 61.5t192 26.5q82 0 141 -21.5t97 -59.5t56.5 -89.5t18.5 -110.5v-598q0 -63 32 -97t87 -34v-41q-72 0 -115 39t-51 108 q-53 -70 -150.5 -121t-218.5 -51q-129 0 -207.5 64.5t-78.5 175.5zM162 215q0 -90 64.5 -142.5t172.5 -52.5q61 0 117.5 15.5t105 41t85 58.5t59.5 70v303q-96 -4 -202.5 -17.5t-195.5 -46t-147.5 -88t-58.5 -141.5zM483 1141l285 329l43 -36l-287 -293h-41z" />
<glyph unicode="&#xe2;" horiz-adv-x="1015" d="M113 215q0 102 63.5 166.5t159.5 100.5t210.5 50.5t219.5 18.5v219q0 98 -62.5 167t-201.5 69q-90 0 -177 -28t-147 -60l-24 45q63 35 156 61.5t192 26.5q82 0 141 -21.5t97 -59.5t56.5 -89.5t18.5 -110.5v-598q0 -63 32 -97t87 -34v-41q-72 0 -115 39t-51 108 q-53 -70 -150.5 -121t-218.5 -51q-129 0 -207.5 64.5t-78.5 175.5zM162 215q0 -90 64.5 -142.5t172.5 -52.5q61 0 117.5 15.5t105 41t85 58.5t59.5 70v303q-96 -4 -202.5 -17.5t-195.5 -46t-147.5 -88t-58.5 -141.5zM227 1141l262 317h68l262 -317h-43l-252 270h-2 l-252 -270h-43z" />
<glyph unicode="&#xe3;" horiz-adv-x="1015" d="M113 215q0 102 63.5 166.5t159.5 100.5t210.5 50.5t219.5 18.5v219q0 98 -62.5 167t-201.5 69q-90 0 -177 -28t-147 -60l-24 45q63 35 156 61.5t192 26.5q82 0 141 -21.5t97 -59.5t56.5 -89.5t18.5 -110.5v-598q0 -63 32 -97t87 -34v-41q-72 0 -115 39t-51 108 q-53 -70 -150.5 -121t-218.5 -51q-129 0 -207.5 64.5t-78.5 175.5zM162 215q0 -90 64.5 -142.5t172.5 -52.5q61 0 117.5 15.5t105 41t85 58.5t59.5 70v303q-96 -4 -202.5 -17.5t-195.5 -46t-147.5 -88t-58.5 -141.5zM264 1223q-2 18 -2 34q0 61 30 98q38 46 97 46 q43 0 78 -24.5t65.5 -54.5t60.5 -54.5t64 -24.5q41 0 66 34q18 25 18 67q0 14 -2 30h43q2 -18 3 -35q0 -61 -30 -97q-38 -46 -98 -46q-43 0 -77.5 24.5t-65.5 54.5t-60.5 54.5t-64.5 24.5q-41 0 -65 -34q-18 -25 -19 -67q0 -14 2 -30h-43z" />
<glyph unicode="&#xe4;" horiz-adv-x="1015" d="M113 215q0 102 63.5 166.5t159.5 100.5t210.5 50.5t219.5 18.5v219q0 98 -62.5 167t-201.5 69q-90 0 -177 -28t-147 -60l-24 45q63 35 156 61.5t192 26.5q82 0 141 -21.5t97 -59.5t56.5 -89.5t18.5 -110.5v-598q0 -63 32 -97t87 -34v-41q-72 0 -115 39t-51 108 q-53 -70 -150.5 -121t-218.5 -51q-129 0 -207.5 64.5t-78.5 175.5zM162 215q0 -90 64.5 -142.5t172.5 -52.5q61 0 117.5 15.5t105 41t85 58.5t59.5 70v303q-96 -4 -202.5 -17.5t-195.5 -46t-147.5 -88t-58.5 -141.5zM319 1251v97h68v-97h-68zM659 1251v97h68v-97h-68z" />
<glyph unicode="&#xe5;" horiz-adv-x="1015" d="M113 215q0 102 63.5 166.5t159.5 100.5t210.5 50.5t219.5 18.5v219q0 98 -62.5 167t-201.5 69q-90 0 -177 -28t-147 -60l-24 45q63 35 156 61.5t192 26.5q82 0 141 -21.5t97 -59.5t56.5 -89.5t18.5 -110.5v-598q0 -63 32 -97t87 -34v-41q-72 0 -115 39t-51 108 q-53 -70 -150.5 -121t-218.5 -51q-129 0 -207.5 64.5t-78.5 175.5zM162 215q0 -90 64.5 -142.5t172.5 -52.5q61 0 117.5 15.5t105 41t85 58.5t59.5 70v303q-96 -4 -202.5 -17.5t-195.5 -46t-147.5 -88t-58.5 -141.5zM340 1321q0 76 53 129t129 53t129.5 -53t53.5 -129 q0 -78 -53.5 -130t-129.5 -52t-129 52t-53 130zM375 1321q0 -61 43 -105.5t104.5 -44.5t104.5 44.5t43 105.5t-43 104t-104.5 43t-104.5 -43t-43 -104z" />
<glyph unicode="&#xe6;" horiz-adv-x="1761" d="M113 215q0 102 63.5 166.5t159.5 100.5t211 50.5t219 18.5v219q0 98 -62.5 167t-201.5 69q-90 0 -177 -28t-147 -60l-24 45q63 35 156 61.5t192 26.5q160 0 233.5 -77t77.5 -200q55 131 164.5 204t255.5 73q102 0 176 -34t121 -92.5t69.5 -138t22.5 -172.5 q0 -12 -1 -29.5t-3 -27.5h-803v-19q0 -129 27 -224q29 -101 83 -166.5t132 -96.5t176 -31q92 0 177 32t142 73l29 -41q-59 -45 -153.5 -77t-194.5 -32q-156 0 -257.5 63.5t-154.5 182.5q-25 -49 -65.5 -93t-95 -78t-120 -54.5t-141.5 -20.5q-129 0 -207.5 64.5t-78.5 175.5z M162 215q0 -90 64.5 -142.5t172.5 -52.5q61 0 123 17.5t116 50.5t96 81t65 110q-16 51 -24.5 107t-8.5 122q-96 -4 -202.5 -17.5t-195.5 -46t-147.5 -88t-58.5 -141.5zM819 602h754v17q1 73 -15 139q-17 74 -58.5 129t-107 87t-159.5 32q-84 0 -154.5 -29t-125 -81 t-89.5 -127t-45 -167z" />
<glyph unicode="&#xe7;" horiz-adv-x="1021" d="M133 528q0 119 34 216.5t93 165t143 104.5t185 37q104 0 179 -29t116 -59l-29 -41q-39 29 -105.5 56.5t-160.5 27.5q-90 0 -165 -34t-128 -96.5t-83 -150.5t-30 -197q0 -117 29 -211t81 -159.5t128 -101.5t168 -36q100 0 166.5 30t122.5 75l32 -37q-61 -51 -136 -82 t-185 -31h-17q-20 -113 -81.5 -217t-155.5 -190l-53 26q92 78 157.5 173.5t89.5 212.5q-184 20 -289.5 165t-105.5 383z" />
<glyph unicode="&#xe8;" horiz-adv-x="1128" d="M133 528q0 119 35 216.5t97.5 165t147.5 104.5t187 37t176 -34t121 -92.5t69.5 -138t22.5 -172.5q0 -12 -1 -29.5t-3 -27.5h-803v-29q0 -236 102.5 -372t315.5 -136q92 0 177 32t143 73l28 -41q-59 -45 -153.5 -77t-194.5 -32q-238 0 -352.5 148.5t-114.5 404.5zM186 602 h754v17q0 73 -15 139q-17 74 -58.5 129t-107 87t-159.5 32q-84 0 -154.5 -29t-125 -81t-89.5 -127t-45 -167zM303 1434l43 36l285 -329h-41z" />
<glyph unicode="&#xe9;" horiz-adv-x="1128" d="M133 528q0 119 35 216.5t97.5 165t147.5 104.5t187 37t176 -34t121 -92.5t69.5 -138t22.5 -172.5q0 -12 -1 -29.5t-3 -27.5h-803v-29q0 -236 102.5 -372t315.5 -136q92 0 177 32t143 73l28 -41q-59 -45 -153.5 -77t-194.5 -32q-238 0 -352.5 148.5t-114.5 404.5zM186 602 h754v17q0 73 -15 139q-17 74 -58.5 129t-107 87t-159.5 32q-84 0 -154.5 -29t-125 -81t-89.5 -127t-45 -167zM553 1141l285 329l43 -36l-287 -293h-41z" />
<glyph unicode="&#xea;" horiz-adv-x="1128" d="M133 528q0 119 35 216.5t97.5 165t147.5 104.5t187 37t176 -34t121 -92.5t69.5 -138t22.5 -172.5q0 -12 -1 -29.5t-3 -27.5h-803v-29q0 -236 102.5 -372t315.5 -136q92 0 177 32t143 73l28 -41q-59 -45 -153.5 -77t-194.5 -32q-238 0 -352.5 148.5t-114.5 404.5zM186 602 h754v17q0 73 -15 139q-17 74 -58.5 129t-107 87t-159.5 32q-84 0 -154.5 -29t-125 -81t-89.5 -127t-45 -167zM297 1141l262 317h68l262 -317h-43l-252 270h-2l-252 -270h-43z" />
<glyph unicode="&#xeb;" horiz-adv-x="1128" d="M133 528q0 119 35 216.5t97.5 165t147.5 104.5t187 37t176 -34t121 -92.5t69.5 -138t22.5 -172.5q0 -12 -1 -29.5t-3 -27.5h-803v-29q0 -236 102.5 -372t315.5 -136q92 0 177 32t143 73l28 -41q-59 -45 -153.5 -77t-194.5 -32q-238 0 -352.5 148.5t-114.5 404.5zM186 602 h754v17q0 73 -15 139q-17 74 -58.5 129t-107 87t-159.5 32q-84 0 -154.5 -29t-125 -81t-89.5 -127t-45 -167zM389 1251v97h68v-97h-68zM729 1251v97h68v-97h-68z" />
<glyph unicode="&#xec;" d="M-68 1434l43 36l285 -329h-41zM197 0v1026h49v-1026h-49z" />
<glyph unicode="&#xed;" d="M182 1141l285 329l43 -36l-287 -293h-41zM197 0v1026h49v-1026h-49z" />
<glyph unicode="&#xee;" d="M-74 1141l262 317h68l262 -317h-43l-252 270h-2l-252 -270h-43zM197 0v1026h49v-1026h-49z" />
<glyph unicode="&#xef;" d="M18 1251v97h68v-97h-68zM197 0v1026h49v-1026h-49zM358 1251v97h68v-97h-68z" />
<glyph unicode="&#xf0;" horiz-adv-x="1155" d="M127 465q0 104 29.5 189t86 145.5t136.5 93.5t180 33q115 0 214 -43t171 -121q-47 145 -124 266t-197 250l-77 -47q-36 -23 -65 -39l-61 -37l-23 39l195 117l-114 111l-132 124h68l114 -106l107 -107l71 43l60 37l59 35l23 -37l-55 -35q-25 -16 -59 -34.5t-68 -41.5 q166 -180 264 -372.5t98 -421.5q0 -123 -31.5 -220.5t-91 -167t-142.5 -106.5t-185.5 -37t-185.5 34t-142.5 97.5t-91 154.5t-31.5 204zM176 465q0 -102 28.5 -184t81 -138.5t127 -87t165 -30.5t165 33.5t127 96t81 151.5t28.5 200q0 47 -5 91t-16 91q-80 96 -182 142.5 t-217 46.5q-180 0 -281.5 -113t-101.5 -299z" />
<glyph unicode="&#xf1;" horiz-adv-x="1138" d="M188 0v1026h41l9 -168q76 80 176 136.5t227 56.5q88 0 148.5 -25t97.5 -68t52 -103t15 -134v-721h-49v721q0 63 -13 115.5t-44 90.5t-82 58.5t-125 20.5q-123 0 -223.5 -57.5t-179.5 -155.5v-793h-50zM313 1223q-2 18 -2 34q0 61 30 98q38 46 97 46q43 0 78 -24.5 t65.5 -54.5t60.5 -54.5t65 -24.5q41 0 65 34q18 25 19 67q0 14 -3 30h43q2 -18 3 -35q0 -61 -30 -97q-38 -46 -97 -46q-43 0 -78 24.5t-66 54.5t-60.5 54.5t-64.5 24.5q-41 0 -65 -34q-18 -25 -19 -67q0 -14 2 -30h-43z" />
<glyph unicode="&#xf2;" horiz-adv-x="1202" d="M133 528q0 119 35 215.5t98.5 165t148.5 105.5t187 37q100 0 186 -37t148.5 -105.5t97.5 -165t35 -215.5q0 -127 -34 -229t-95 -174t-147 -111t-190.5 -39t-191.5 39t-148.5 111t-95.5 174t-34 229zM182 528q0 -117 30 -210t85 -159.5t133 -102.5t172 -36t171 36 t132.5 102.5t85 160t29.5 209.5q0 109 -32 197t-87 150.5t-132 96.5t-167 34t-167 -34t-133 -96.5t-88 -150.5t-32 -197zM311 1434l43 36l285 -329h-41z" />
<glyph unicode="&#xf3;" horiz-adv-x="1202" d="M133 528q0 119 35 215.5t98.5 165t148.5 105.5t187 37q100 0 186 -37t148.5 -105.5t97.5 -165t35 -215.5q0 -127 -34 -229t-95 -174t-147 -111t-190.5 -39t-191.5 39t-148.5 111t-95.5 174t-34 229zM182 528q0 -117 30 -210t85 -159.5t133 -102.5t172 -36t171 36 t132.5 102.5t85 160t29.5 209.5q0 109 -32 197t-87 150.5t-132 96.5t-167 34t-167 -34t-133 -96.5t-88 -150.5t-32 -197zM561 1141l285 329l43 -36l-287 -293h-41z" />
<glyph unicode="&#xf4;" horiz-adv-x="1202" d="M133 528q0 119 35 215.5t98.5 165t148.5 105.5t187 37q100 0 186 -37t148.5 -105.5t97.5 -165t35 -215.5q0 -127 -34 -229t-95 -174t-147 -111t-190.5 -39t-191.5 39t-148.5 111t-95.5 174t-34 229zM182 528q0 -117 30 -210t85 -159.5t133 -102.5t172 -36t171 36 t132.5 102.5t85 160t29.5 209.5q0 109 -32 197t-87 150.5t-132 96.5t-167 34t-167 -34t-133 -96.5t-88 -150.5t-32 -197zM305 1141l262 317h68l262 -317h-43l-252 270h-2l-252 -270h-43z" />
<glyph unicode="&#xf5;" horiz-adv-x="1202" d="M133 528q0 119 35 215.5t98.5 165t148.5 105.5t187 37q100 0 186 -37t148.5 -105.5t97.5 -165t35 -215.5q0 -127 -34 -229t-95 -174t-147 -111t-190.5 -39t-191.5 39t-148.5 111t-95.5 174t-34 229zM182 528q0 -117 30 -210t85 -159.5t133 -102.5t172 -36t171 36 t132.5 102.5t85 160t29.5 209.5q0 109 -32 197t-87 150.5t-132 96.5t-167 34t-167 -34t-133 -96.5t-88 -150.5t-32 -197zM342 1223q-2 18 -2 34q0 61 30 98q38 46 97 46q43 0 78 -24.5t65.5 -54.5t60 -54.5t64.5 -24.5q41 0 66 34q18 25 18 67q0 14 -2 30h43q2 -18 2 -35 q0 -61 -29 -97q-38 -46 -98 -46q-43 0 -77.5 24.5t-65.5 54.5t-60.5 54.5t-64.5 24.5q-41 0 -66 -34q-18 -25 -18 -67q0 -14 2 -30h-43z" />
<glyph unicode="&#xf6;" horiz-adv-x="1202" d="M133 528q0 119 35 215.5t98.5 165t148.5 105.5t187 37q100 0 186 -37t148.5 -105.5t97.5 -165t35 -215.5q0 -127 -34 -229t-95 -174t-147 -111t-190.5 -39t-191.5 39t-148.5 111t-95.5 174t-34 229zM182 528q0 -117 30 -210t85 -159.5t133 -102.5t172 -36t171 36 t132.5 102.5t85 160t29.5 209.5q0 109 -32 197t-87 150.5t-132 96.5t-167 34t-167 -34t-133 -96.5t-88 -150.5t-32 -197zM397 1251v97h68v-97h-68zM737 1251v97h68v-97h-68z" />
<glyph unicode="&#xf7;" horiz-adv-x="1251" d="M113 489v50h1026v-50h-1026zM600 57v172h49v-172h-49zM600 799v172h49v-172h-49z" />
<glyph unicode="&#xf8;" horiz-adv-x="1202" d="M127 -82l143 197q-66 72 -101.5 176t-35.5 237q0 119 35 215.5t98.5 165t148.5 105.5t187 37q168 0 289 -99l137 189l39 -29l-141 -192q68 -68 105.5 -167.5t37.5 -224.5q0 -127 -34 -229t-95 -174t-147 -111t-191 -39q-174 0 -295 105l-141 -191zM182 528 q0 -119 31 -214t88 -160l561 759q-109 92 -260 93q-90 0 -167 -34t-133 -96.5t-88 -150.5t-32 -197zM334 119q109 -98 268 -99q94 0 171 36t132.5 102.5t85 160t29.5 209.5q0 111 -33 201t-92 152z" />
<glyph unicode="&#xf9;" horiz-adv-x="1138" d="M184 305v721h49v-721q0 -63 13.5 -115.5t44.5 -90.5t82 -58.5t125 -20.5q123 0 222 56.5t181 154.5v795h49v-1026h-37l-12 166q-76 -78 -177 -134.5t-226 -56.5q-88 0 -148.5 25t-97.5 68t-52.5 103t-15.5 134zM279 1434l43 36l284 -329h-41z" />
<glyph unicode="&#xfa;" horiz-adv-x="1138" d="M184 305v721h49v-721q0 -63 13.5 -115.5t44.5 -90.5t82 -58.5t125 -20.5q123 0 222 56.5t181 154.5v795h49v-1026h-37l-12 166q-76 -78 -177 -134.5t-226 -56.5q-88 0 -148.5 25t-97.5 68t-52.5 103t-15.5 134zM528 1141l285 329l43 -36l-287 -293h-41z" />
<glyph unicode="&#xfb;" horiz-adv-x="1138" d="M184 305v721h49v-721q0 -63 13.5 -115.5t44.5 -90.5t82 -58.5t125 -20.5q123 0 222 56.5t181 154.5v795h49v-1026h-37l-12 166q-76 -78 -177 -134.5t-226 -56.5q-88 0 -148.5 25t-97.5 68t-52.5 103t-15.5 134zM272 1141l263 317h67l262 -317h-43l-252 270h-2l-252 -270 h-43z" />
<glyph unicode="&#xfc;" horiz-adv-x="1138" d="M184 305v721h49v-721q0 -63 13.5 -115.5t44.5 -90.5t82 -58.5t125 -20.5q123 0 222 56.5t181 154.5v795h49v-1026h-37l-12 166q-76 -78 -177 -134.5t-226 -56.5q-88 0 -148.5 25t-97.5 68t-52.5 103t-15.5 134zM365 1251v97h67v-97h-67zM705 1251v97h67v-97h-67z" />
<glyph unicode="&#xfd;" horiz-adv-x="950" d="M49 -408l17 43q45 -20 96 -20q66 0 115 30.5t83 123.5l91 239l-390 1018h58l356 -948h4l352 948h58l-483 -1274q-41 -106 -102.5 -144t-141.5 -38q-27 0 -57.5 6t-55.5 16zM438 1141l285 329l43 -36l-287 -293h-41z" />
<glyph unicode="&#xfe;" horiz-adv-x="1163" d="M197 -410v1956h49v-674q66 70 152.5 124.5t201.5 54.5q98 0 177 -37t135.5 -105.5t87 -165t30.5 -215.5q0 -125 -27.5 -226t-82 -174t-134 -113t-184.5 -40q-106 0 -195.5 50.5t-160.5 132.5v-568h-49zM246 219q72 -86 163 -142.5t193 -56.5q92 0 163 37t119 103.5 t72.5 160t24.5 207.5q0 109 -26.5 197t-77 150.5t-121 96.5t-156.5 34q-111 0 -197 -56.5t-157 -138.5v-592z" />
<glyph unicode="&#xff;" horiz-adv-x="950" d="M49 -408l17 43q45 -20 96 -20q66 0 115 30.5t83 123.5l91 239l-390 1018h58l356 -948h4l352 948h58l-483 -1274q-41 -106 -102.5 -144t-141.5 -38q-27 0 -57.5 6t-55.5 16zM274 1251v97h68v-97h-68zM614 1251v97h68v-97h-68z" />
<glyph unicode="&#x152;" horiz-adv-x="2564" d="M135 731q0 162 54.5 295t148.5 229.5t220 149.5t267 53q111 0 211.5 -33.5t183.5 -95t146.5 -149.5t97.5 -197v451h928v-45h-879v-635h795v-45h-795v-664h893v-45h-942v457q-35 -113 -96 -202t-144 -151.5t-184.5 -95.5t-214.5 -33q-145 0 -271 53.5t-219 153 t-146.5 238.5t-53.5 311zM184 731q0 -162 50.5 -293t136.5 -224t202.5 -143.5t251.5 -50.5q133 0 250 50.5t203 143.5t136 224t50 293q0 150 -51 276t-138 216t-204 140t-246 50q-131 0 -247.5 -50t-203.5 -140t-138.5 -216t-51.5 -276z" />
<glyph unicode="&#x153;" horiz-adv-x="2015" d="M133 528q0 119 35 215.5t98.5 165t148.5 105.5t187 37q168 0 287 -100.5t155 -274.5q37 176 155 275.5t288 99.5q102 0 176 -34t121 -92.5t69.5 -138t22.5 -172.5q0 -12 -1 -29.5t-3 -27.5h-803v-20q0 -248 100 -379q104 -137 318 -138q92 0 177 32t142 73l29 -41 q-59 -45 -153.5 -77t-194.5 -32q-197 0 -304.5 100.5t-140.5 284.5q-37 -180 -152.5 -282.5t-287.5 -102.5q-104 0 -191 39t-148.5 111t-95.5 174t-34 229zM182 528q0 -117 30 -210t85 -159.5t133 -102.5t172 -36t171 36t132.5 102.5t85 160t29.5 209.5q0 109 -32 197 t-87 150.5t-132 96.5t-167 34t-167 -34t-133 -96.5t-88 -150.5t-32 -197zM1073 602h754v17q0 73 -16 139q-17 74 -58 129t-106.5 87t-159.5 32q-84 0 -154.5 -29t-125 -81t-89.5 -127t-45 -167z" />
<glyph unicode="&#x178;" horiz-adv-x="1290" d="M82 1434h61l500 -799h4l500 799h61l-538 -842v-592h-49v592zM432 1602v96h68v-96h-68zM793 1602v96h67v-96h-67z" />
<glyph unicode="&#x2c6;" horiz-adv-x="1351" d="M379 1141l262 317h68l262 -317h-43l-252 270h-2l-252 -270h-43z" />
<glyph unicode="&#x2dc;" horiz-adv-x="1351" d="M416 1223q-10 86 27.5 132t97.5 46q43 0 77.5 -24.5t65.5 -54.5t60.5 -54.5t64.5 -24.5q41 0 65.5 34t16.5 97h43q10 -86 -28 -132t-97 -46q-43 0 -78 24.5t-65.5 54.5t-60.5 54.5t-64 24.5q-41 0 -65.5 -34t-16.5 -97h-43z" />
<glyph unicode="&#x2013;" horiz-adv-x="1132" d="M102 500v49h928v-49h-928z" />
<glyph unicode="&#x2014;" horiz-adv-x="1882" d="M102 500v49h1678v-49h-1678z" />
<glyph unicode="&#x2018;" horiz-adv-x="397" d="M174 981v182q0 106 34 171t105 100l21 -33q-68 -41 -89.5 -96.5t-21.5 -141.5v-182h-49z" />
<glyph unicode="&#x2019;" horiz-adv-x="397" d="M63 1014q68 41 89.5 96t21.5 141v183h49v-183q0 -106 -33.5 -170.5t-105.5 -99.5z" />
<glyph unicode="&#x201a;" horiz-adv-x="397" d="M63 -238q68 41 89.5 96.5t21.5 141.5v182h49v-182q0 -106 -33.5 -171t-105.5 -99z" />
<glyph unicode="&#x201c;" horiz-adv-x="763" d="M174 981v182q0 106 34 171t105 100l21 -33q-68 -41 -89.5 -96.5t-21.5 -141.5v-182h-49zM541 981v182q0 106 33.5 171t105.5 100l20 -33q-68 -41 -89 -96.5t-21 -141.5v-182h-49z" />
<glyph unicode="&#x201d;" horiz-adv-x="763" d="M63 1014q68 41 89.5 96t21.5 141v183h49v-183q0 -106 -33.5 -170.5t-105.5 -99.5zM430 1014q68 41 89.5 96t21.5 141v183h49v-183q0 -106 -34 -170.5t-105 -99.5z" />
<glyph unicode="&#x201e;" horiz-adv-x="763" d="M63 -238q68 41 89.5 96.5t21.5 141.5v182h49v-182q0 -106 -33.5 -171t-105.5 -99zM430 -238q68 41 89.5 96.5t21.5 141.5v182h49v-182q0 -106 -34 -171t-105 -99z" />
<glyph unicode="&#x2022;" horiz-adv-x="1099" d="M307 514q0 51 19.5 95t52.5 77t77 51.5t95 18.5t95 -18.5t77 -51.5t51.5 -77t18.5 -95t-18.5 -95t-51.5 -77t-77 -51.5t-95 -18.5t-95 18.5t-77 51.5t-52.5 77t-19.5 95z" />
<glyph unicode="&#x2026;" horiz-adv-x="1269" d="M174 0v182h49v-182h-49zM610 0v182h49v-182h-49zM1047 0v182h49v-182h-49z" />
<glyph unicode="&#x2039;" horiz-adv-x="696" d="M113 514l413 512l37 -31l-387 -481l387 -483l-37 -31z" />
<glyph unicode="&#x203a;" horiz-adv-x="696" d="M133 31l387 483l-387 481l37 31l414 -512l-414 -514z" />
<glyph unicode="&#x20ac;" horiz-adv-x="1253" d="M72 352v45h194q-16 76 -16 152q0 61 12 121h-190v45h200q25 88 75 159.5t119 122t154 78t179 27.5q100 0 190 -31t164 -88l-29 -37q-66 53 -149.5 82t-175.5 29q-84 0 -160 -24.5t-138.5 -68.5t-108.5 -107.5t-70 -141.5h475v-45h-486q-12 -59 -12 -121q0 -41 4 -79 t12 -73h482v-45h-467q51 -154 175 -241.5t294 -87.5q96 0 183 31.5t153 84.5l36 -30q-74 -63 -169 -97.5t-203 -34.5q-94 0 -178 26t-152 74t-117 117.5t-76 157.5h-204z" />
<glyph unicode="&#x2122;" horiz-adv-x="1783" d="M76 1386v48h706v-48h-336v-710h-49v710h-321zM924 676v758h67l293 -394l293 394h68v-758h-50v698l-311 -416l-311 416v-698h-49z" />
<glyph unicode="&#xe000;" horiz-adv-x="1025" d="M0 1025h1025v-1025h-1025v1025z" />
<glyph unicode="&#xfb01;" horiz-adv-x="1116" d="M55 981v45h201v139q0 111 26.5 185.5t76 121t117 65.5t147.5 19q172 0 323 -110l-28 -35q-76 55 -152 77.5t-143 22.5q-72 0 -130.5 -17t-99.5 -57t-64.5 -106.5t-23.5 -165.5v-139h307v-45h-307v-981h-49v981h-201zM870 0v1026h50v-1026h-50z" />
<glyph unicode="&#xfb02;" horiz-adv-x="1157" d="M55 981v45h201v150q0 100 26.5 172.5t73.5 118.5t111.5 67.5t140.5 21.5t140.5 -21.5t111.5 -67.5t74 -118.5t27 -172.5v-1176h-50v1176q0 88 -22.5 151.5t-62.5 104.5t-96 60t-122 19q-133 0 -218 -79.5t-85 -255.5v-150h307v-45h-307v-981h-49v981h-201z" />
<glyph unicode="&#xfb03;" horiz-adv-x="1679" d="M55 981v45h201v129q0 111 26.5 185.5t76 120.5t117 65.5t147.5 19.5q154 0 286 -88q49 53 120 75.5t157 22.5q172 0 323 -110l-28 -35q-76 55 -152 77.5t-143 22.5q-72 0 -130.5 -17t-99.5 -57t-64.5 -106.5t-23.5 -165.5v-139h308v-45h-308v-981h-49v981h-514v-981h-49 v981h-201zM305 1026h514v139q0 86 16.5 149.5t47.5 110.5q-68 41 -134.5 58.5t-125.5 17.5q-72 0 -130.5 -17.5t-99.5 -57.5t-64.5 -106.5t-23.5 -164.5v-129zM1434 0v1026h49v-1026h-49z" />
<glyph unicode="&#xfb04;" horiz-adv-x="1720" d="M55 981v45h201v129q0 111 26.5 185.5t76 120.5t117 65.5t147.5 19.5q156 0 288 -88q47 51 114 74.5t146 23.5q76 0 140.5 -21.5t111.5 -67.5t74 -118.5t27 -172.5v-1176h-49v1176q0 88 -22.5 151.5t-62.5 104.5t-96.5 60t-122.5 19q-133 0 -218 -79.5t-85 -255.5v-150 h308v-45h-308v-981h-49v981h-514v-981h-49v981h-201zM305 1026h514v150q0 156 66 249q-68 41 -135.5 58.5t-126.5 17.5q-72 0 -130.5 -17.5t-99.5 -57.5t-64.5 -106.5t-23.5 -164.5v-129z" />
</font>
</defs>
</svg>
